#TITLE:DESTINY;
#SUBTITLE:;
#ARTIST:Venessa Mae;
#TITLETRANSLIT:;
#SUBTITLETRANSLIT:;
#ARTISTTRANSLIT:;
#CREDIT:;
#BANNER:Destiny-banner.png;
#BACKGROUND:Destiny-bg.png;
#LYRICSPATH:;
#CDTITLE:;
#MUSIC:Destiny.mp3;
#MUSICLENGTH:89.312;
#OFFSET:1.080;
#SAMPLESTART:44.625;
#SAMPLELENGTH:12.000;
#SELECTABLE:YES;
#BPMS:0.000=141.400;
#STOPS:;
#BGCHANGES:;
#FIRSTBEAT:28.000;

#LASTBEAT:212.000;

#SONGFILENAME:Songs/ERICth MIX 2nd Style/Destiny/destiny.sm;

#HASMUSIC:1;

#HASBANNER:1;


//---------------dance-single - MANIAC----------------
#NOTES:
     dance-single:
     MANIAC:
     hard:
     9:
     0.521,0.504,0.022,0.941,0.129,240.000,2.000,84.000,0.000,0.000:




0000
0000
0000
0000
,
0000
0000
0000
0000
,
0000
0000
0000
0000
,
0000
0000
0000
0000
,
0000
0000
0000
0000
,
0000
0000
0000
0000
,
0000
0000
0000
0000
,
2000
0000
0000
3100
0010
0100
2000
0000
,
3200
0320
0032
0103
,
0002
0000
0000
0103
0010
0100
0002
0000
,
2003
3200
0320
0031
,
2000
0000
0000
3100
0010
0100
2000
0000
,
3200
0320
0032
0103
,
0002
0000
0000
0103
0010
0100
0002
0000
,
2003
3200
0320
0032
,
2003
0000
0000
0010
0010
0010
3010
0000
,
0020
2030
3020
0230
,
0302
0000
0000
0100
0100
0100
0103
0000
,
0200
0302
0203
0320
,
0230
0000
0000
0010
0010
0010
0310
0000
,
0020
2030
3002
0010
,
2003
0000
0000
3100
0010
0100
0010
0000
,
0220
0000
0030
0301
,
1000
0000
0000
0100
0010
0000
0001
0000
1000
0000
0100
0000
0010
0000
0001
0000
1000
0000
0100
0000
0010
0000
0002
0000
,
0000
0000
2003
3020
,
1000
0000
0000
0100
0000
0000
1030
0000
,
0000
0000
2000
3000
0022
0033
0200
0300
,
1000
0000
0001
1000
0002
0000
0000
0000
2003
0000
0000
0000
3000
0000
0000
0000
,
0100
0000
0010
0100
0020
0000
0000
0000
0230
0000
0000
0000
0300
0000
0000
0000
,
1000
0000
0100
1000
0200
0000
0000
0000
2300
0000
0000
0000
3000
0000
0000
0000
,
0010
0000
0001
0010
0002
0000
0000
0000
0023
0000
0000
0000
0030
0000
0000
0000
,
0100
0000
0001
0100
0002
0000
0000
0000
0203
0000
0000
0000
0300
0000
0000
0000
,
0010
0000
1000
0010
2000
0000
0000
0000
3020
0000
0000
0000
0030
0000
0000
0000
,
1000
0000
0010
0100
0020
0000
0000
0000
0032
0000
0000
0000
0003
0000
0000
0000
,
0001
0000
0010
0100
0020
0000
0000
0000
2030
0000
0000
0000
3000
0000
0000
0000
,
1000
0000
0001
1000
0002
0000
0000
0000
2003
0000
0000
0000
3000
0000
0000
0000
,
0100
0000
0010
0100
0020
0000
0000
0000
0230
0000
0000
0000
0300
0000
0000
0000
,
1000
0000
0100
1000
0200
0000
0000
0000
2300
0000
0000
0000
3000
0000
0000
0000
,
0010
0000
0001
0010
0002
0000
0000
0000
0023
0000
0000
0000
0030
0000
0000
0000
,
0100
0000
0001
0100
0002
0000
0000
0000
0203
0000
0000
0000
0300
0000
0000
0000
,
0010
0000
1000
0010
2000
0000
0000
0000
3020
0000
0000
0000
0030
0000
0000
0000
,
1000
0000
0010
0100
0020
0000
0000
0000
0032
0000
0000
0000
0003
0000
0000
0000
,
0001
0000
0010
0100
0020
0000
0000
0000
2030
0000
0000
0000
3000
0000
0000
0000
,
1000
0100
0010
0100
1000
0100
0001
0100
,
1000
0001
0100
0010
0100
0001
0100
1000
,
0100
0001
1000
0100
0010
0100
1000
0100
,
0001
0100
1000
0001
0100
0010
0100
0001
,
0100
1000
0100
0001
0100
0010
0100
0001
,
0100
1000
0100
0001
1000
0100
0010
0100
,
1000
0100
0001
0100
1000
0001
0100
0010
,
0100
0001
0100
1000
0100
0001
1000
0000
,
2000
3200
0320
0032
,
0023
0230
2300
0000
,
3000
0000
0000
0000;

//---------------dance-single - ANOTHER----------------
#NOTES:
     dance-single:
     ANOTHER:
     medium:
     6:
     0.307,0.326,0.011,0.078,0.000,184.000,1.000,7.000,0.000,0.000:




0000
0000
0000
0000
,
0000
0000
0000
0000
,
0000
0000
0000
0000
,
0000
0000
0000
0000
,
0000
0000
0000
0000
,
0000
0000
0000
0000
,
0000
0000
0000
0000
,
0100
0000
0010
0000
0100
0010
0100
0000
,
0001
1000
0100
0011
,
2000
0000
0000
0000
3001
0010
0001
0000
,
0100
1000
0010
0000
,
0002
0000
0000
0000
0103
0010
0100
0000
,
1000
0100
0010
0000
,
0200
0000
0000
0000
1300
0001
1000
0000
,
1000
0001
0100
0010
,
0100
0000
0000
1000
0100
1000
0010
0000
,
0100
1000
0001
0100
,
0010
0000
0000
0010
0100
0010
0100
0000
,
0001
1000
0100
1000
,
0001
0000
0000
1000
0100
0010
0001
0000
,
0001
0100
0010
0000
,
0001
0000
0000
1000
0100
0010
0001
0000
,
0010
1000
0001
1000
,
0100
1000
0100
1000
,
0200
0000
0000
0000
0000
0000
1000
0300
,
1000
0100
1000
0100
,
1000
0010
0001
0100
,
0001
0010
1000
0000
0100
0000
0000
0000
,
0010
0100
0010
0000
0001
0000
0000
0000
,
0100
1000
0100
0000
0010
0000
0000
0000
,
0001
1000
0001
0000
0010
0000
0000
0000
,
0100
0010
0100
0000
0001
0000
0000
0000
,
0010
1000
0010
0000
1000
0000
0000
0000
,
0001
0010
0001
0000
0100
0000
0000
0000
,
0010
0100
0010
0000
1000
0000
0000
0000
,
0001
0010
0001
0000
0010
0000
0000
0000
,
0100
1000
0001
0000
0010
0000
0000
0000
,
0001
1000
0001
0000
0010
0000
0000
0000
,
0100
0010
0100
0000
0001
0000
0000
0000
,
0001
1000
0010
0000
0010
0000
0000
0000
,
0010
1000
0001
0000
0100
0000
0000
0000
,
0001
0010
0100
0000
0100
0000
0000
0000
,
0001
1000
0010
0000
0100
0000
0000
0000
,
0001
1000
0001
1000
,
0010
0100
0001
0010
,
0100
0010
0001
1000
,
0010
1000
0100
0001
,
0010
1000
0001
0100
,
0010
1000
0001
0010
,
0100
1000
0001
0000
0000
0000
0000
0000
,
0100
1000
0001
1000
,
1000
0100
0010
0000
0010
0001
0100
0000
,
0002
0000
2000
0003
3020
0000
0000
0030;

//---------------dance-single - BASIC----------------
#NOTES:
     dance-single:
     BASIC:
     easy:
     3:
     0.203,0.265,0.022,0.045,0.000,121.000,2.000,4.000,0.000,0.000:




0000
0000
0000
0000
,
0000
0000
0000
0000
,
0000
0000
0000
0000
,
0000
0000
0000
0000
,
0000
0000
0000
0000
,
0000
0000
0000
0000
,
0000
0000
0000
0000
,
0020
0030
0001
1000
,
0100
0000
0000
0000
,
0200
0300
1000
0001
,
0100
0000
0000
0000
,
0002
0003
0100
0010
,
1000
0100
0010
0000
,
0020
0030
0100
1000
,
0010
0100
0010
1000
,
0001
0000
0100
0000
,
1000
0000
0010
0000
,
0100
0000
0100
0000
,
0001
0000
0010
0000
,
1000
0000
0100
0000
,
0010
0000
1000
0000
,
0001
0000
0100
0000
,
0010
0000
0000
0000
,
1000
0100
0010
0001
,
1000
0100
0010
0001
,
1000
0010
0001
0100
,
1000
0010
0001
0100
,
1000
0000
0001
0001
,
0010
0000
1000
1000
,
0100
0000
0010
0010
,
0100
0000
0100
0100
,
0001
0000
1000
0100
,
0010
0000
0001
0010
,
0100
0000
1000
0010
,
0001
0000
0001
0100
,
1000
0000
0001
0100
,
0010
0000
0001
0010
,
1000
0000
0100
0010
,
0100
0000
0001
1000
,
0001
0000
0010
0100
,
0100
0000
0001
0010
,
0010
0000
1000
0100
,
0100
0000
0000
0000
,
1001
0000
0100
0000
,
0010
0000
0001
0000
,
0010
0000
1000
0000
,
0100
0000
0010
0000
,
0110
0000
0001
0000
,
1000
0000
0100
0000
,
0100
0000
0100
0000
,
0001
0000
1000
0000
,
1000
0100
0001
0100
,
1000
0100
0001
0000;
